Index Of Pink Floyd Flac

Download Pink Floyd - The Wall - Experience Edition (2012) FLAC TNT Villa torrent or any other torrent from the Audio FLAC. Pink Floyd - Heart Beat, Pig Meat 02. It is a mainly instrumental album with one song, 'Louder Than Words', (with new lyrics by novelist Polly Samson), arranged across four sides and produced by David Gilmour, Phil Manzanera, Youth and Andy Jackson. Pink Floyd featuring Frank Zappa (flac) by Pink Floyd. Capital records, still owning the rights on all music dark side and earlier, decided to cash in on Floyd's new found fame by releasing a compilation. 73GB [Ryuumaru] Hyakka Ryouran Samurai Girls - 07 - 08 [1080p Blu-Ray FLAC] 4. Good Audience. Speak To Me 02. Artist: Pink Floyd - Title Of Album: The Wall Rebuilt The Complete Version Year Of Release: 2020 Label (Catalog#): Brickwall Records and Tapes Country: USA Genre: Rock Quality: FLAC (*tracks. Pink Floyd The Dark Side Of The Moon BoxSet 3CD FLAC 2018 torrent download - ExtraTorrent. Careful With That Axe, Eugene 6:40 / 2016, 24bit WEB, KaRaMusic. Terms of Use; Privacy Policy; About Our Ads; Advertising © 2019 Billboard. 3 GB + Scans TracklistCD1: The Dark Side of the Moon Revisited. 12MB; Pink Floyd - The Dark Side of the Moon (1973) [24 bit FLAC] vinyl[viola62] 892. miscellaneous s -w. Harvested Records Discography (Overview) If this is your first visit, be sure to check out the FAQ by clicking the link above. and Pink Floyd belongs among that. Floyd -1965 - Their First Recordings в формате FLAC, релиз . , EU, Germany, 0190295413132, PFRLY01), FLAC (image+. Best! The Wall (Remastered) by Pink Floyd Music Online. 6 MB, info-hash. High Hopes. cue) Quality: lossless Covers: Complete set (600 dpi) Amount of tracks: 12 Size RAR: ~ 578. 00: Pink Floyd / The Piper At The Gates Of Dawn CD CEMI 3525 $19. Shine On You Crazy Diamond 2. Pink Floyd - Wish You Were Here (2011 Mix) 24bit SACD FLAC Beolab1700/05. All 14 original Studio albums have now been painstakingly digitally remastered by James Guthrie (co-producer of The Wall), and are reissued with newly crafted packaging and booklets created by the band's long-time artwork collaborator Storm Thorgerson. torrent 17-Aug-2014 02:57 3. The Best Of Pink Floyd - A Foot in the Door Artist: Pink Floyd Album: - A Foot in the Door (The Best Of Pink Floyd) Label: EMi. Pink Floyd - The Wall Experience Ed 2012 [EAC - FLAC](oan)™ Pink Floyd - The Wall Experience Ed 2012 [EAC - FLAC](oan)™ the fully developed songs are among the finest of Pink Floyd's later work, but The Wall. The Thin Ice (2:26) 03. High quality Pink Floyd MP3 downloads from zdigital Australia. Имеются инвайты на закритые музыкальные торрент -трекера. 0 by Not-No-One. 98: Pink Floyd / The Wall/ 2 discs Preowned Gold CD UCMOB 2537 $315. This is the second Pink Floyd album recorded without founding member Roger Waters, the. 46 GB Género-Rock Tamaño de la cu. 0 Total Size: 4. 00b: October 5 2013 at 23:05: Enya - Only Time Collection. Tema: Re: Pink Floyd ‎– Greatest Hits (FLAC) Miér 17 Mayo 2017, 21:05: gracias men : SluPsie Mensajes: 9 Puntos: 9 Fecha de inscripción: 02/09/2017:. Artist: Pink Floyd Title Of Album: The Endless River [Deluxe Edition 24bit] Year Of Release: 2014 Label (Catalog#): Country: UK Genre: Progressive Rock Quality: FLAC (*tracks) Bitrate: Lossless. -In The Flesh Thanks 4 Seeding Cheers!. torrent 17-Aug-2014 02:57 3. Pink Floyd - Dark Side Of The Moon Mobile Fidelity MFSL 1-017 Half-Speed Mastered - Pressed in Japan by JVC 24-bit / 96kHz Vinyl Rip by Dr. 1 to FLAC Conversion) 1 -1 Uploaded 1 year ago: 2. d The Wall (Remastered) by Pink Floyd Review Online. Can you tell a green field from a cold steel rail? A smile from a veil?. 0 96kHz/24Bit) | Bitrate: lossless | Tracks: 6 | Size: ~3. Pink Floyd were an English rock band who recorded material for fifteen studio albums, three soundtrack albums, three live albums, eight compilation albums, four box sets, as well as material that, to this day, remains unreleased during their five decade career. t The Wall (Remastered) by Pink Floyd Download Online. Pink Floyd Cover of Little wing. Письмо из хогвартса на русском распечататьBike 1969 - Ummagumma Germany 01. Rock by makatins58. Wed Jan 22, 2020 4:49 am. 9 Other formats: MP4 FLAC AHX XM DMF AC3 ASF Genre: Electronic music / Rock. 1 Endless River Blu-Ray. 5 MB) 06 Pink Floyd - Wearing The Inside Out. Pink Floyd - The Early Years 1965-1972 (2016/2017) [HDTracks FLAC 24bit/44,1kHz] Pink Floyd - Meddle (1971) (2016 Stereo Mix) [Blu-ray to FLAC 24bit/96kHz] Pink Floyd - The Best Of Pink Floyd - Alexander Jero Custom Audiophile Presentation (2011) [Blu-Ray Pure Audio Disc] Pink Floyd - The Endless River (2014) {Deluxe Edition} [HDTracks 24bit. The last 3 tracks are completely new, and form together an 11 minute instrumental suite. On 29 November 2019, Pink Floyd Records will release ‘Pink Floyd The Later Years’, an 18-disc set (5xCDs, 6xBlu-Rays, 5xDVDs, 2x7” plus exclusive photo book and memorabilia) covering the material created by David Gilmour, Nick Mason and Richard Wright from 1987 onwards. Coming Back To Life 6. log+Covers) Length: 01:18:16 min Tracks: 14 Total Size: 456 Mb WebSite: Facebook Группа была образована в 1997 году в Фрайзинг, Германия, как Pink Floyd кавер-бэнд. Pink Floyd fue una banda de rock británica, considerada un icono cultural del siglo xx y una de las bandas más influyentes en la historia de la música, que obtuvo gran popularidad gracias a su música psicodélica que evolucionó hacia el rock progresivo con el paso del tiempo. flac 227 MB, 08 Any Colour You Like. 03 KB VA - Pink Box: Songs Of Pink Floyd (2007) FLAC. Pink Floyd - The Dark Side Of The Moon (Experience Version 2011)2CD. flac 236 MB Pink Floyd - Wish You Were Here (2011 Mix) 24bit SACD FLAC Beolab1700/Art. cue), lossless Год выпуска: 2013. Tracks 1-2. Interstellar Overdrive. Pink Floyd - Wish You Were Here (2011 Mix) 24bit SACD FLAC Beolab1700/05. Pink Floyd - Dark Side Of The Moon Mobile Fidelity MFSL 1-017 Half-Speed Mastered - Pressed in Japan by JVC 24-bit / 96kHz Vinyl Rip by Dr. Soubor Pink Floyd - The Dark Side of the Moon (1973) [24 bit FLAC] vinyl. Pink Floyd | Discografía completa | CD & Vinyl | Flac + MP3 320 kbps [076] LP , Progressive Rock , Psychedelic Rock 42 Pink Floyd fue una banda de rock británica, considerada un icono cultural del siglo xx y una de las bandas más influyentes en la historia de la música, que obtuvo gran popularidad gracias a su música psicodélica que. r/opendirectories: **Welcome to /r/OpenDirectories** Unprotected directories of pics, vids, music, software and otherwise interesting files. uk tax stamper codes. miscellaneous i - m. Download discography Pink Floyd on site losslessalbums. 1970 (Bootleg) (2016). 34 GB Atom Heart Mother, for all its glories, was an acquired taste, and Pink Floyd wisely decided to trim back its orchestral excesses for its follow-up, Meddle. Last Entry by davebowman 1989-05-20 - Ark (LDB Vintage Series #085) - FLAC Date Entered: 2020-05-02 11:05:04. nfo 13-Aug-2019 08:11 3. 54 Artist: Pink Floyd Album: Delicate Sound of Thunder Year: 1988 Genre: Rock Source: CD. alphabetical song index This is an alphabetical listing of every Pink Floyd song and album, from Absolutely Curtains to Zabriskie Point. Pink Floyd - Rhapsody In Pink The Psychedelic Years (1990) [FLAC] Started by Bylinka. On 29 November 2019, Pink Floyd Records will release 'Pink Floyd The Later Years', an 18-disc set (5xCDs, 6xBlu-Rays, 5xDVDs, 2x7" plus exclusive photo book and memorabilia) covering the material created by David Gilmour, Nick Mason and Richard Wright from 1987 onwards. Companies, etc. 2 MB: __Facebook _ Jamal TheMoroccan _. - Fearless 4. Another Brick In The Wall, Part 1 / Another Brick In The Wall, Part 2 Released 1980 (Colombia) Not Now John (obscured version) // The Hero's Return, Parts 1 & 2 / Not Now John (album version) Released 1983 (Netherlands, UK) On The Turning Away // Run Like Hell (live) / On The Turning Away (live). Pink Floyd and Solo Albums. PINK FLOYD releasing a 20th anniversary box set of THE DIVISION BELL the band's 1994 multi-million selling album that included the Grammy® Award-winning track "Marooned". 1 multichannel music Category: Rock Surround Music Download Tags: Pink Floyd, Progressive, Rock, FLAC 5. 22): And of course, mycommand is to be replaced by the command to be used. 1 on the American charts. Quality: FLAC 16 bit / 44. This is due to the weight of cardboard used on the sleeve. Plays Hits Of Pink Floyd (1994) FLAC LOSSLESS 16bit-44kHz Edelton Records 0028382EDL Tracklist: 01. PINK FLOYD - THE WALL [MP3 320 KBPS] OR [FLAC] DISCO 1. 99: Pink Floyd / The Final Cut. rar PF_LiveAtTheBBC_RevA_flac. Pink Floyd - 1992 - Shine On [FLAC] {9 CD Box Set - Columbia Rec. RAR / 247 MB / 310 MB / 373 MB; RAR / 98 MB / 126 MB / 154 MB. Includes 3 new mixes from 'A Momentary Lapse of Reason', 3 new mixes from 'Delicate Sound of Thunder', 3 tracks from Knebworth 1990, 2 unreleased studio recordings. t The Wall (Remastered) by Pink Floyd Download Online. flac 130 MB, 01 Speak To Me. All Rights Reserved. Live At Pompeii by Pink Floyd (1972/2016, 24 bit Hi-Res Flac) - Release Date: 2016 Genre: Rock Audio Codec: Flac Rip Type: tracks Bitrate: lossless Audio Channels: 2. Last post Re: Richard Wright - Wet Dream. Release Name: Pink_Floyd-The_Later_Years_1987-2019-CD-FLAC-2019-FORSAKEN Artist: Pink Floyd Album: The Later Years: 1987-2019 Genre: Rock Year: 2019 Tracks: 12 Duration: 01:19:49 Size: 497. Download Pink-Floyd-FLAC Torrent at TorrentFunk. 14 torrent download locations thepiratebay. A collection of Pink Floyd television broadcast recordings from 1967 and 1968, recorded for the BBC and French and Italian stations. 98: Pink Floyd / The Wall/ 2 discs Preowned Gold CD UCMOB 2537 $315. Buy, preview and download over 30 million tracks in our store. Pink Floyd - The Dark Side Of The Moon Artist: Pink Floyd | Album: The Dark Side Of The Moon | Style: Art Rock, Progressive Rock | Year: 2011 [1973 original] | Quality: DVD-Audio (MLP 5. 1969's More and Ummagumma albums credit the band as Pink Floyd, produced by The Pink Floyd, while 1970's Atom Heart Mother credits the band as The Pink Floyd, produced by Pink Floyd. The Final Cut Pink Floyd 1983 From $18. Performer: Pink Floyd, The Title: The Best Of The Pink Floyd Style: Psychedelic Rock Released: 1970 MP3 album: 1150 mb FLAC album: 1614 mb WMA album: 1551 mb Rating: 4. Pink Floyd, Jerry Garcia - Zabriskie Point (Soundtrack 2CD 1970/1997) FLAC Gatunek / Genre: Psychedelic Rock Czas trwania / Time: 36:09+55:08 Jakość / Quality: FLAC Bitrate: Lossless Całkowity rozmiar / Total Size: 410 MB TRACKLIST CD1: 01. wow clearly this box set was meant for the new pink floyd fan just discovering pink floyd head over to whypinkfloyd. Speak To Me - Breathe In The Air - U. It appears that David attempted to write his name and rewrote it. 98: Pink Floyd / The Wall/ 2 discs Preowned Gold CD UCMOB 2537 $315. Pink Floyd - Meddle - 2016 hidden 5. Us And Them 08. All Rights Reserved. A) (This Place Records : TPR CD 010) Demos & Outtakes 1983-1993 Studio Soundboard Recordings Encoded: 320 Kbps MP3. Download (110 MB) FlacMusicFinder. Pink Floyd - The Wall Experience Ed 2012 [EAC - FLAC](oan)™ Pink Floyd - The Wall Experience Ed 2012 [EAC - FLAC](oan)™ the fully developed songs are among the finest of Pink Floyd's later work, but The Wall. Для упрощения процесса скачивания песен, торрент файл залит на наш. Artist: Pink Floyd Album: Pink Floyd Live Vol. If you want to get the torrent file or original data of Pink Floyd - A Foot In The Door (The Best Of Pink Floyd) (2018) [FLAC Vinyl], please use uTorrent, BaiduNetdisk, BitTorrent or Thunder. 99: Pink Floyd / Oh By The Way: Pink Floyd Studio Album Box Set CD Box Sets CCAP 11267 $229. cue,log) Total Time: 02:35:26 Total Size: 896 Mb. Welcome to the Pink Floyd Official Store! Shop online for Pink Floyd merchandise, t-shirts, hoodies,apparel, hats, posters, artwork, stickers & accessories. On The Run 04. Pink Floyd Records will release 'Pink Floyd The Later Years', an 18-disc set (5 x CDs, 6 x Blu-Rays, 5 x DVDs, 2 x 7″ plus exclusive photo book and memorabilia) covering the material created by David Gilmour, Nick Mason and Richard Wright from 1987 onwards. Chordify gives you the chords for any song. PInk Floyd Full Discography torrent download locations. The Traders' Den is a team of avid music collectors dedicated to the free trading of lossless unofficial (aka bootleg) musical audio and video recordings. Pink Floyd Azimuth Coordinator (6CD Version) CD1-2: 8 Apr 75; PNE Exhibition Park, Vancouver - VG CD3-4: 6 Jul 77; Olympic Stadium, Montreal, Quebec - VG+. Breathe 03. Pink Floyd - The Later Years 1987-2019 Artist: Pink Floyd Album: The Later Years 1987-2019 Label: Pink Floyd Records. 8 Genre: Electronic / Rock. cue), FLAC (tracks+. Download Pink Floyd -The Wall (1979) FLAC torrent for free, HD Full Movie Streaming Also Available in Limetorrents. Watch and download free files flac. 3 GB: 04/20/20: 1: 0 : Pink Floyd - The Wall (1979)(Remastered) [viola62]: 2. Pink Floyd - The Later Years (Remastered) 24 bit Hi-Res. This is taken from the stereo broadcast. Скачать Pink Floyd / The Endless River 2014 FLAC музыку через торрент,. Il termine pink floyd sound identifica pertanto una peculiarità rimasta intatta negli anni. 9K Pink Floyd The Wall 1982 VOST FRENCH SUBS REPACK DVDRiP EliteT. 2CD in 6-panel digifile. The Pink Floyd pistol shrimp was discovered by a team of scientists from Seattle University, the Oxford University Museum of Natural History and Brazil's Universidade Federal de Goiás. 1989 Pink Floyd in Concert - Delicate Sound Of Thunder. Welcome to the Pink Floyd Official Store! Shop online for Pink Floyd merchandise, t-shirts, hoodies,apparel, hats, posters, artwork, stickers & accessories. Pink Floyd – Wish You Were Here flac Genre: Rock Release Date: September 15, 1975 Quality: 16-bit | 44. Pink Floyd - The Dark Side Of The Moon (Immersion Box Set 3CD + 2DVD + Blu Ray) [2011, Progressive Rock, Psychedelic Rock, FLAC] Формат: FLAC, (image +. r/opendirectories: **Welcome to /r/OpenDirectories** Unprotected directories of pics, vids, music, software and otherwise interesting files. miscellaneous n -r. 55 MB] Pink Floyd Discovery Booklet 02. 4 GB: 04/18/20. HD Tracks & Vinyl Lossless Hi-Res FLAC hdtracks hi - res music download. Pink Floyd - The Early Singles Artist: Pink Floyd Album: The Early Singles Label: EMI. You will find many Lithuanian artists here (I'm Lithuanian myself, so I want to build a large discography of artists from 50s to 10s) MP3 - 254GB (3191 files, 310 folders) contains all the BBC Radio Essential Mix Collection from 1993 to 2020) FLAC - 1,77TB (74799 files, 7185 folders) contains all specter of bit-rates,bits, there is also some. 98: Pink Floyd / The Wall/ 2 discs Preowned Gold CD UCMOB 2537 $315. The Pink Floyd and Syd Barrett Story [DVDrip] Pink Floyd - Live 8 ~ video; Pink Floyd - Animals - 1977 [FLAC] David Gilmour Live in Gdansk [DVDRip] - 2006; The Wall - 1979 - 320 kbps; Pink Floyd DVD sincronizado Dark Side of the Moon Pink Floyd The Wall (Pelicula) - 1982; Pink Floyd: Video Anthology DVD3; Pink Floyd: Video Anthology DVD2. Watch Pink Floyd - The Dark Side Of The Moon (2003 SACD 5 1 to FLAC Conversion) Free Full Movies Online, Like 123Movies, Fmovies, Putlocker, Netflix or Direct Download Torrent Pink Floyd - The Dark Side Of The Moon (2003 SACD 5 1 to FLAC Conversion) via Magnet Link. About Billboard. collectors corner. The record, called "The Endless River," will be the British band's first new release in 20 years. 6 MB, info-hash. Parent Directory 17-Sep-2012 21:03 - Pink Floyd - Behind The Wall 2015 VOSTFR BDRip XviD 1080p FUZION. 1 96kHz/24Bit, MLP 2. The letter states To Whom it may Concern, The item-Record album US LP -Pink Floyd - The Wall in Near Mint condition. rar PF_LiveAtPompeiiRm_flac. Recent Entries; 1999-08-28 · Roger Waters @ Kemper Arena, Kansas City · Every Point Of Light · 4 days ago; 1999-08-28 · Roger Waters @ Kemper Arena, Kansas City · Each Small Candle · 5 days ago; 1999-08-18 · Roger Waters @ Coca-Cola Star Lake Amphitheater, Burgettstown · Starlake Amphitheater · 9 days ago; 1999-08-18 · Roger Waters @ Coca-Cola Star Lake Amphitheater, Burgettstown. Chords: G, Em, A, D. } 2 torrent download locations Download Direct Pink Floyd - 1992 - Shine On [FLAC] {9 CD Box Set - Columbia Rec. Pink Floyd - Heart Beat, Pig Meat 02. Wednesday, December 11, 2019. Arnold Layne - 2016 Remastered Version Lyrics. Sunday, 5 January 2020 #135 PINK FLOYD - Too Late For Mind Expanding 1970 (Flac) PINK FLOYD The Montreux 40th Anniversary Series Too Late For Mind Expanding (HRV CDR 036) Montreux Casino, 21 November 1970. 83 MB] 21The Moment Of Clarity. Elvis Presley - Classic Love Balads 1986 [FLAC]-JDR: 0. Il termine pink floyd sound identifica pertanto una peculiarità rimasta intatta negli anni. VA - Pink Box: Songs Of Pink Floyd (2007) FLAC. 4 MB: 09 - Brain Damage. Pink Floyd - The Dark Side Of The Moon (Experience Version 2011)2CD. Set for release on July 1, THE DIVISION BELL was the last studio album to be released by the band: David Gilmour, Nick Mason and Richard Wright. It is currently Tue May 05, 2020 8:06 pm. Pigs On The Wing (Parts 1 & 2) - Pink Floyd (1977) 8-Track Version FLAC Remaster 1080p HD Video. The group's UK releases during the Syd Barrett era credited them as The Pink Floyd as did their first two U. High Hopes 4. pink floyd the endless river flac • pink floyd the endless riverb> pink floyd • pink floyd the endless river lp pink floyd • pink floyd the endless river. PINK FLOYD full discography FLAC-lossless ZoneTeam in 'music. So, so you think you can tell Heaven from Hell, blue skies from pain. In the last week of April 1973, Pink Floyd's Dark Side of the Moon reached No. Pink Floyd: The Wall 1982 1080p HDTVRip x265 FLAC 2 0 Kira SEV. The Thin Ice (2:26) 03. 1 to FLAC Conversion) 1 -1 Uploaded 1 year ago: 2. About Billboard. Pink Floyd Records will release 'Pink Floyd The Later Years', covering the material created by David Gilmour, Nick Mason and Richard Wright from 1987 onwards. Careful With That Axe, Eugene 6:40 / 2016, 24bit WEB, KaRaMusic. 1 96kHz/24Bit, MLP 2. Read Full Biography. 1967 cambridge st/ation. PERFORMER "Pink Floyd" REM COMPOSER "" INDEX 01 00:00:00 FILE "04. Имеются инвайты на закритые музыкальные торрент -трекера. 00: Pink Floyd / The Piper At The Gates Of Dawn CD CEMI 3525 $19. 95 MB Pink f loyd - The Wall (1979) [ f LAC] { 2 016 reissue }. If you want to get the torrent file or original data of Pink Floyd - A Foot In The Door (The Best Of Pink Floyd) (2018) [FLAC Vinyl], please use uTorrent, BaiduNetdisk, BitTorrent or Thunder. 2 { Depending on Album }# # FLAC Level 6 ##### These albums have been ripped from SACD in full quality using foo_input_sacd and are the absolute best renditions available. PINK FLOYD releasing a 20th anniversary box set of THE DIVISION BELL the band's 1994 multi-million selling album that included the Grammy® Award-winning track "Marooned". 88 MB] 20 Get Back To Radio. In the last week of April 1970, though, they had yet to crack the U. 05 MB] Album Art. Pink Floyd - Naniwa: Natural Dark In Osaka 1972 (2005) Bootleg Flac + Mp3. Il termine pink floyd sound identifica pertanto una peculiarità rimasta intatta negli anni. Watch Pink Floyd - The Dark Side Of The Moon (2003 SACD 5 1 to FLAC Conversion) Free Full Movies Online, Like 123Movies, Fmovies, Putlocker, Netflix or Direct Download Torrent Pink Floyd - The Dark Side Of The Moon (2003 SACD 5 1 to FLAC Conversion) via Magnet Link. Work 3:53 4. Harvested Records Discography (Overview) If this is your first visit, be sure to check out the FAQ by clicking the link above. 25-04-2018, 13:39 Pink Floyd – The Piper at the Gates of Dawn (Mono) (2018) (24bit/96kHz) (RSD, Vinyl Rip) FLAC. flac 207 MB, 03 On The Run. Pink Floyd - The Endless River (2014) [FLAC] {HDtracks 24-96} html bbcode To share this torrent use the code below and insert it into comments, status messages, forum posts or your signature. 5 GB Pink Floyd The Dark Side Of The Moon 1973 [24 bit FLAC] VINYL 890 MB Pink Floyd - Discography [EAC - FLAC] (oan) 7. nfo 13-Aug-2019 08:11 3. Дискографии (Рок, Панк, Метал, Альтернатив) » Скачать торрент Pink Floyd - Discography Сборники и альбомы Рок музыки в формате FLAC ( lossless) скачать Сборник The Many Faces of Pink Floyd : A Journey Through the Inner World of Pink. Artist: Pink Floyd - Title Of Album: The Wall Rebuilt The Complete Version Year Of Release: 2020 Label (Catalog#): Brickwall Records and Tapes Country: USA Genre: Rock Quality: FLAC (*tracks. Pink Floyd - The Dark Side of the Moon - Time (FLAC) by Flac Music. Made in USA. flac 480 MB, 04 Time. The Great Gig In The Sky 06. Heart Beat Intro (complete) 2:51 02 (a). è l'ultimo disco dei 4 pink floyd assieme (the final cut è in realtà il primo album solista di Waters e non l'ultimo dei floyd assieme) che dire di un album come questo che ha venduto milioni di copi, da cui + stato tratto un film, che nel ha rappresentato la caduta del muro di berlino e che roger water continua a presentare in giro x il mondo. } could be available for direct download. Includes 3 new mixes from 'A Momentary Lapse of Reason', 3 new mixes from 'Delicate Sound of Thunder', 3 tracks from Knebworth 1990, 2 unreleased studio recordings. Este Blog tem o intuito primordial de divulgar trabalhos do Pink Floyd que, até então, jamais foram lançados oficialmente. Container: flac (tracks) Quality: Hi-Fi, lossless audio Sample Rate: 192000 kHz / 24 bit, Stereo Source: LP Album Artist - Name: Pink Floyd - A Momentary Lapse Of Reason (2016 Remastered) Genre: Rock Release Date: 1987 www publisher: hd24bit. è l'ultimo disco dei 4 pink floyd assieme (the final cut è in realtà il primo album solista di Waters e non l'ultimo dei floyd assieme) che dire di un album come questo che ha venduto milioni di copi, da cui + stato tratto un film, che nel ha rappresentato la caduta del muro di berlino e che roger water continua a presentare in giro x il mondo. 2K Pink Floyd - Behind The Wall 2015 VOSTFR BDRip XviD 1080p FUZION. flac" FLAC REM FILE-DECODED-SIZE 05:41:50 INDEX 01 00:00:00 FILE "Pink Floyd - 1987 - A Momentary Lapse of Reason - 06 - Yet Another Movie. Download Pink Floyd -The Wall (1979) FLAC torrent for free, HD Full Movie Streaming Also Available in Limetorrents. Metallica Recommended for you. Nightmare 9:14 9. 1 kHz Format: FLAC Total File Size: 259 MB. -In The Flesh Thanks 4 Seeding Cheers!. You may have to register before you can post: click the register link above to proceed. Index of /pink-floyd Name Last modified Size Description. 99 prebeta 5 from 4. icuongpv Jun 10th, 2012 62 Never Not a member of Pastebin yet? Sign Up, it unlocks many cool features! raw download clone embed report print text 3. High Hopes. They have an album for sale with the charming title Wish You Were Dead. These outtakes probably come from an early version of "The Division Bell" album, and reveal that the first intention of the Floyd was to make a long instrumental piece where "Cluster One" segues into "Marooned", and then into a third part with percussions. Quality: FLAC 16 bit / 44. The last Pink Floyd concert that included both Gilmour and Waters occurred in London in July 2005 at the Live 8 benefit. Speak To Me. TRACKLIST CD 1 01 - In The Flesh (3:19) 02 - The Thin Ice (2:29) 03 - Another Brick In The Wall (Part I) (3:09) 04 - The Happiest Days Of Our Lives (1:50). Pink Floyd - The Later Years: 1987-2019 (2019) Hi-Res By admin flac-music 2019 , Hi-Res & Vinyl , Rock 0 Comments Genre : Rock Release Date : 2019 Format : Flac (tracks) Quality : 24bits - 44. 1 96kHz/24Bit, MLP 2. Best The Wall (Remastered) by Pink Floyd Zip. 0 96kHz/24Bit) | Bitrate: lossless | Tracks: 6 | Size: ~3. Let There Be More Light (5:37) 02. HTTP download also available at fast speeds. The Traders' Den is a team of avid music collectors dedicated to the free trading of lossless unofficial (aka bootleg) musical audio and video recordings. nfo 17-Aug-2014 02:57 1. Sabias que Pink Floyd se separó porque sus integrantes discernían respecto al conflicto de las islas Malvinas. A discussion forum and sharing centre of Pink Floyd live recordings. Download Pink Floyd - The Division Bell (1994) Flac torrent for free, Downloads via Magnet Link or FREE Movies online to Watch in LimeTorrents. In the last week of April 1973, Pink Floyd's Dark Side of the Moon reached No. 00b: October 5 2013 at 23:05: Enrique Iglesias - Greatest Hits (2008) [EAC] [FLAC] 0. Promo Ep (3:43) 02. 07 Pink Floyd - Take It Back. 1989 Pink Floyd in Concert - Delicate Sound Of Thunder. E Year Of Release: : 1995~2018 Genre: : Psychedelic Rock, Prog Rock Quality: : FLAC 24 BIT / 192 kHz [ HI-Res]. In the last week of April 1973, Pink Floyd's Dark Side of the Moon reached No. 99: Pink Floyd / Oh By The Way: Pink Floyd Studio Album Box Set CD Box Sets CCAP 11267. Pink Floyd - The Dark Side Of The Moon (Experience Version 2011)2CD. Last visit was: Tue May 05, 2020 8:06 pm. Pink Floyd "Complete Concertgebouw" Concertgebouw, Amsterdam, Netherlands. pink floyd torrent searched for free. Release Name: Pink_Floyd-The_Later_Years_1987-2019-CD-FLAC-2019-FORSAKEN Artist: Pink Floyd Album: The Later Years: 1987-2019 Genre: Rock Year: 2019 Tracks: 12 Duration: 01:19:49 Size: 497. Pink Floyd - The Best of Tour 72 Completed and Restored - Live at the Rainbow Theatre, Finsbury Park, London UK, 1972-02-20 Set List (in brackets the position on the original first issue LP, side a, side b) 01 (a). Includes 3 new mixes from 'A Momentary Lapse of Reason', 3 new mixes from 'Delicate Sound of Thunder', 3 tracks from Knebworth 1990, 2 unreleased studio recordings. PINK FLOYD - THE WALL [MP3 320 KBPS] OR [FLAC] DISCO 1. 16-bit FLAC; Preview The Final Cut. Let There Be More Light (5:37) 02. Performer: Floyd Parson Title: Shine On You Crazy Diamond (Medley Of Pink Floyd) Category: Electronic Country: Italy Released: 1984 Label: Crash Catalog #: DS 020 Rating: 4. In the last week of April 1973, Pink Floyd's Dark Side of the Moon reached No. M Pink Floyd Lossless Discography. Replies: 0 Views: 1187 06 November 2014, 13:58:46 by Ligfaerd. Directed by Matthew Longfellow. 0 96kHz/24Bit) | Bitrate: lossless | Tracks: 6 | Size: ~3. Quality: FLAC 16 bit / 44. Doing It 4:03 7. HD Tracks & Vinyl Lossless Hi-Res FLAC hdtracks hi - res music download. Pink Floyd - The Later Years: 1987-2019 (2019) By bestmusic 2019 , Rock 0 Comments Genre: Rock Release Date: 2019 Quality: FLAC (tracks) (Web). Pink Floyd - The Best Of Pink Floyd - A Foot In The Door [flac] Music: 10 months ago: 465 MB: 0: 0: Pink Floyd - Echoes - The Best Of Pink Floyd - R68S - (Flac LossLess + Cover) Music: 10 months ago: 1. Dream Theatre-The Big Medley (Pink Floyd, Kansas, Queen, Journey, Dixie Dregs & Genesis) (Dream Theater). d The Wall (Remastered) by Pink Floyd Review Online. It matches the following masks: Talk:Pink Floyd/Archive <#> It was generated at 04:43, 29 May 2019 (UTC) by Legobot. rar LIVE EVIL 002 : Pink Floyd - Live at the BBC (best of), (disc 2 remastered) PF_LiveAtTheBBC_RevA_flac. Buy, preview and download over 30 million tracks in our store. 0 % Extraction speed 8. 7 MB) 05 Pink Floyd - A Great Day For Freedom. Read Full Biography. 0 96kHz/24Bit, MLP 4. collectors corner. 3 GB: 04/20/20: 1: 0 : Pink Floyd - The Wall (1979)(Remastered) [viola62]: 2. 06 Pink Floyd - The Dogs Of War. Pink Floyd - The Piper At The Gates Of Dawn (2016) Vinyl | LP Cover (1:1) | FLAC + cue | 32bit/192kHz | 2,38 Gb Label: Pink Floyd Records - SIJP-11/PFRLP1 | Release: 2016 | 00:41:56 | Genre: Rock The title of Pink Floyd's debut album is taken from a chapter in Syd Barrett's favorite children's book, The Wind in the Willows, and the lyrical imagery of The Piper at the Gates of Dawn is. Made for Radio play… A nice little release. (Pre-FM FLAC) Concertgebouw This is the complete soundboard source as recorded by Hilversum 3 Radio and is the "raw" source HRV used for their remaster Pre-FM SBD > cd-r trade > FLAC Part I - The Man Disc One: 1. d The Wall (Remastered) by Pink Floyd Review Online. 7 Other formats: WMA TTA VQF DMF MP1 AIFF AU Pink Floyd - Paris Palais Des Sports 1973 mp3 download. and Pink Floyd belongs among that. دیسکوگرافی Pink Floyd از سال 1967 تا 2019 دانلود دیسکوگرافی با کیفیت Flac 16bit/44KHz (سری شماره 1) – 20,000 تومان. 2011 A Foot in the Door; The Best of Pink Floyd: 186 MB: Yesterday: 30: 10 : Pink Floyd 1977 - Animals flac: 793 MB: 04/19/20: 2: 0 : Pink Floyd 1990 Knebworth Concert BDRip: 1. Pink Floyd / The Division Bell. Pink Floyd ‎– The Piper At The Gates Of Dawn. -In The Flesh Thanks 4 Seeding Cheers!. torrent 13-Aug-2019 08:11 4. Afternoon 5:13 6. Acquistare sempre la copia Originale. Elvis Presley - Classic Love Balads 1986 [FLAC]-JDR: 0. 1 Added: 14-03-2020, 16:04 To bookmarks. 1 96kHz/24Bit, MLP 2. Performer: Floyd Parson Title: Shine On You Crazy Diamond (Medley Of Pink Floyd) Category: Electronic Country: Italy Released: 1984 Label: Crash Catalog #: DS 020 Rating: 4. Rock s my passion !!! (Portuguese) Muitos anos de downloads de shows e videos, mp3 não oficiais, não lançados , bootlegs. 00: Pink Floyd / The Piper At The Gates Of Dawn CD CEMI 3525 $19. Speak To Me 02. live performance by pink floyd. High quality Pink Floyd MP3 downloads from 7digital United States. 5 GB MB, Files: 10, Magnet, Torrent, 07 Us And Them. 1 Total Size: 10. 16-bit FLAC; Preview Delicate Sound of Thunder (Live) Delicate Sound of Thunder (Live) Pink Floyd 1988 From $23. El álbum está construido a partir de las ideas que Pink Floyd había explorado en sus conciertos y anteriores grabaciones, pero carece de las largas piezas instrumentales que caracterizaban a los trabajos posteriores a la marcha en 1968 de su miembro fundador, principal compositor y letrista, Syd Barrett. 06- mother. flac 130 MB, 01 Speak To Me. cue,log) Total Time: 02:35:26 Total Size: 896 Mb. Interesting problem with 5 Channel Flac such as Pink Floyd's DSOTM. Sabias que Pink Floyd se separó porque sus integrantes discernían respecto al conflicto de las islas Malvinas. You may have to register before you can post: click the register link above to proceed. Pink Floyd by tarpman. flac 387 MB, 05 The Great Gig In The Sky. Pink Floyd - The Dark Side Of The Moon (1973) 2017 FLAC [Japanese Reissue] (Jamal The Moroccan) Scans/Pink Floyd - The Dark Side Of The Moon (SICP-5409) 017. Seeders, leechers and torrent status is updated several times per day. 9K Pink Floyd The Wall 1982 VOST FRENCH SUBS REPACK DVDRiP EliteT. Vampire Weekend - Father of the Bride 2CD (2019) FLAC; Trisha Yearwood - Heaven, Heartache and the Power of Love (2020) FLAC; The Secret Sisters - Saturn Return (2020) FLAC; Pink Floyd - The Later Years: 1987-2019 (2019) FLAC; Pink Floyd - The Division Bell (2014) FLAC; The Go Betweens - Tallulah (2020) FLAC. torrent 13-Aug-2019 08:11 4. Dark Side Of The Moon. Tracklist: Shine On You Crazy Diamond, Pts. Tracklist: Pink Floyd - Speak To Me - 4:09 (2803 kbps , 83. - San Tropez 5. Pink Floyd Azimuth Coordinator (6CD Version) CD1-2: 8 Apr 75; PNE Exhibition Park, Vancouver - VG CD3-4: 6 Jul 77; Olympic Stadium, Montreal, Quebec - VG+. Album vorhören Animals (2011 Remastered Version) 16-bit FLAC; Erscheinungsdatum: 04. Speak To Me 02. 12MB; Pink Floyd - The Dark Side of the Moon (1973) [24 bit FLAC] vinyl[viola62] 892. Nightmare 9:14 9. Please note that some copies have a very, very small corner dink/crease. Directed by Matthew Longfellow. A collection of Pink Floyd television broadcast recordings from 1967 and 1968, recorded for the BBC and French and Italian stations. RoboCop 2 (1990) BluRay 720p 850MB Ganool. Pink Floyd - The Dark Side of the Moon (30th Anniversary Edition) [FLAC] por Paragati 9:12 2 comentarios Artista: Pink Floyd. Il termine pink floyd sound identifica pertanto una peculiarità rimasta intatta negli anni. On The Run - Live…. pink floyd the endless river flac • pink floyd the endless riverb> pink floyd • pink floyd the endless river lp pink floyd • pink floyd the endless river. 54 Gb Tracklist: CD1 -Side One: Original Album Part One Live Album Recorded at Mothers Birmingham & Manchester College of Commerce June 1969 + Studio Album (77:27) 01. live performance by pink floyd. 02 MB 05 - Another Brick In The Wall Part 2. 03- another brick in the wall, part 1. These outtakes probably come from an early version of "The Division Bell" album, and reveal that the first intention of the Floyd was to make a long instrumental piece where "Cluster One" segues into "Marooned", and then into a third part with percussions. Interesting problem with 5 Channel Flac such as Pink Floyd's DSOTM. 0 Tracklist: 01. Pink Floyd - Rhapsody In Pink The Psychedelic Years (1990) [FLAC] Started by Bylinka. Autographed by Nick Mason, David Gilmour, Roger Waters. Metallica Recommended for you. Pink Floyd was an original and their songs should be left as they are. Robert March 2010 Nitty Gritty RCM 1. 04 - The Happiest Days Of Our Lives. Скачать Pink Floyd - Delicate Sound Of Thunder [Vinyl-Rip 24-bit] (1988) FLAC торрентом бесплатно Добавить в поисковую строку Скачать с альтернативного источника. E Year Of Release: : 1995~2018 Genre: : Psychedelic Rock, Prog Rock Quality: : FLAC 24 BIT / 192 kHz [ HI-Res]. miscellaneous s -w. 0 96kHz/24Bit) | Bitrate: lossless | Tracks: 6 | Size: ~3. Distributed By - СомВэкс-Трейдинг ; Licensed From - РАО ; Licensed To - SomeWax Recordings ; Pressed By - ООО "Астико-Центр" ; Notes Originally released in 1970. 1 Released: 2019 Style: Prog Rock Format: MP3 320Kbps Size: 126 Mb Read the rest of this entry ». Pink Floyd Delicate Sound Of Thunder [FLAC 1988][trfkad] torrent download, InfoHash 0851B2515327B580CE2D686849FCB69ADA7B5CF9. 0 96kHz/24Bit, MLP 2. 05- another brick in the wall, part 2. Parent Directory 17-Sep-2012 21:03 - Pink Floyd - Behind The Wall 2015 VOSTFR BDRip XviD 1080p FUZION. Buy, preview and download over 30 million tracks in our store. FLAC album: 1685 mb WMA album: 1697 mb Rating: 4. Publication date 1969-10-25 Topics psychedelic rock. TITLE "Pink Box - Songs Of Pink Floyd - Disc 2" FILE "Various Artists - Pink Box - Songs Of Pink Floyd - Disc 2. Pink Floyd - The Later Years (Remastered) 24 bit Hi-Res. Taken 2 Movie In Hindi Torrent. The Traders' Den is a team of avid music collectors dedicated to the free trading of lossless unofficial (aka bootleg) musical audio and video recordings. Pink Floyd - Animals (Remastered) (1977/2016) [FLAC] Artist: Pink Floyd Title: Animals Year Of Release: 1977/2016 Label: Pink Floyd Records Genre: Progressive Rock, Psychedelic Rock Quality: EAC Rip | FLAC (tracks+log+. Download: pink floyd the division bell flac, Found: 15 Results, Updated: 04-May-2020. 1970, BBC Sessions, Bootleg, Pink Floyd, Pink Floyd 1970, Pink Floyd Compilations PINK FLOYD - EARL'S COURT RADIO SOURCE 1994-10-20 Auteur: ace 16 août 2019 0 Commentaires. flac 236 MB Pink Floyd - Wish You Were Here (2011 Mix) 24bit SACD FLAC Beolab1700/Art. 1 Multichannel 192kHz-24bit High-Resolution Audio [SexySadist] 1 -1 Uploaded 5 months ago: 2. 6 KB) Pink Floyd - Delicate Sound Of Thunder [ CD Disc 1 ]. Doing It 4:03 7. 95 KB] Pink Floyd Discovery Booklet 01. I can upload 750Gb of files to drive everyday, so hopefully today it will be finished (after my calculation). (pre-FM FLAC) Pink Floyd, New Pre-FM Master (with Echoes!) 1974-11-16 Wembley If you're a Pink Floyd collector, you probably have several versions of this particular recording. High Hopes 4. 1 96kHz/24Bit, MLP 4. Comments (0 Comments) Please login or create a FREE account to post comments. Pink Floyd Cover of Little wing. It appears that David attempted to write his name and rewrote it. Pink Floyd Records will release 'Pink Floyd The Later Years', an 18-disc set (5 x CDs, 6 x Blu-Rays, 5 x DVDs, 2 x 7″ plus exclusive photo book and memorabilia) covering the material created by David Gilmour, Nick Mason and Richard Wright from 1987 onwards. The previous year had seen the band attempt to mimic their former bandleader's singles-oriented approach to psyche-pop with their second release Saucerful of Secrets as well as the single releases "It Would Be So Nice" and "Point Me At the Sky". Download Pink Floyd - The Wall (1979) 1994 UK Remastered (FLAC-EAC-CUE) torrent or any other torrent from Lossless category. Dear visitor, you are browsing our website as Guest Stai per scaricare Pink Floyd - Discografia (1967-2014). Pink Floyd The Dark Side Of The Moon BoxSet 3CD FLAC torrent. 0 ~1536 kbps) | Bitrate: lossless | Tracks: 10 | Size: ~5. The Thin Ice (2:26) 03. 4 KB Scans/Pink Floyd - The Dark Side Of The Moon (SICP-5409) 016. Tracklist: Disc 1 - CD: The Original Album, Remastered In 2011. Dream Theatre-The Big Medley (Pink Floyd, Kansas, Queen, Journey, Dixie Dregs & Genesis) (Dream Theater). Best! The Wall (Remastered) by Pink Floyd Music Online. Great Gig in Boblingen REV A. But this is probably the less interesting part of Floyd's career: big shows, pompous sound, high ideals but minor inspiration are the main characters of these Waters-less Floyds. Speak To Me - Breathe In The Air - U. Pink Floyd were an English rock band who earned international recognition for their. Pink Floyd The Dark Side Of The Moon BoxSet 3CD FLAC 2018 torrent download - ExtraTorrent. r/opendirectories: **Welcome to /r/OpenDirectories** Unprotected directories of pics, vids, music, software and otherwise interesting files. All 14 original Studio albums have now been painstakingly digitally remastered by James Guthrie (co-producer of The Wall), and are reissued with newly crafted packaging and booklets created by the band's long-time artwork collaborator Storm Thorgerson. 2CD in 6-panel digifile. Pink Floyd - The Dark Side of the Moon - Time (FLAC) by Flac Music. miscellaneous e -h. We would like to offer you a great possibility to be the evident ofthe numerous live sport events, watch sports online, including football games of the UEFA Champions League and so on. In the last week of April 1970, though, they had yet to crack the U. Speak To Me / Breathe. rar LIVE EVIL 002 : Pink Floyd - Live at the BBC (best of), (disc 2 remastered) PF_LiveAtTheBBC_RevA_flac. Albums Compilations Singles & EPs DVDs & Videos Others All. miscellaneous n -r. Shine On You Crazy Diamond 2. Style: Progressive Rock Year: 1992 Format: FLAC Bitrate: lossless Amount of tracks: 79 Tracklist: CD1 – A Saucerful…. wav" WAVE TRACK 03 AUDIO TITLE "Embryo" PERFORMER "Pink Floyd" INDEX 01 00:00:00 FILE "Pink Floyd - Focus\04 - Green Is The Colour. 0 96kHz/24Bit) | Bitrate: lossless | Tracks: 6 | Size: ~3. they achieved international acclaim with their progressive and psychedelic music. David has moved on to doing some pretty good stuff and he still handles the old songs with great care. Echoes: The Best Of Pink Floyd. cue) lossless Главная » Зарубежный Rock » Progressive & Art-Rock (lossless). Download Pink Floyd - Delicate Sound Of Thunder 1988 Rock [Flac-Lossless] torrent or any other torrent from Audio > FLAC Direct download via magnet link. 34 GB Atom Heart Mother, for all its glories, was an acquired taste, and Pink Floyd wisely decided to trim back its orchestral excesses for its follow-up, Meddle. High quality Pink Floyd music downloads from 7digital United Kingdom. Welcome to the Pink Floyd Official Store! Shop online for Pink Floyd merchandise, t-shirts, hoodies,apparel, hats, posters, artwork, stickers & accessories. Echoes: The Best of Pink Floyd Pink Floyd 2001 From $23. Speak To Me 02. The organization isn't the best but I will work it out after I will get some free time after my thesis. Performer: Pink Floyd Title: The Dark Side Of The Moon (El Lado Oscuro De La Luna) Size FLAC ver: 1458 mb Country: UK Date of release: 1973 Style: Psychedelic Rock, Prog Rock Other formats: MOD AHX AU FLAC DMF MIDI MP1 Genre: Rock Rating: 4. 2 KB: __For Any Suggestion Or. Pink Floyd - 1967-09-25 - London, UK (FLAC) (FM broadcast FLAC) Carlisle Radio broadcast 01. The last 3 tracks are completely new, and form together an 11 minute instrumental suite. Il termine pink floyd sound identifica pertanto una peculiarità rimasta intatta negli anni. Pink Floyd - 1992 - Shine On [FLAC] {9 CD Box Set - Columbia Rec }, Size : 1. 1 kHz Format: FLAC Total File Size: 259 MB Tracklist: Shine On You Crazy Diamond, Pts. d The Wall (Remastered) by Pink Floyd Review Online. Report generated based on a request from Talk:Pink Floyd. 5 KB Scans/Pink Floyd - The Dark Side Of The Moon (SICP-5409) 015. Es conocido por sus canciones de alto contenido filosófico, la experimentación sónica, las innovadoras portadas. Manufactured By - Sony Music Entertainment (Brasil) Ind. } 2 torrent download locations Download Direct Pink Floyd - 1992 - Shine On [FLAC] {9 CD Box Set - Columbia Rec. Top 50 after three years of recording and performing. 54 Gb Tracklist: CD1 -Side One: Original Album Part One Live Album Recorded at Mothers Birmingham & Manchester College of Commerce June 1969 + Studio Album (77:27) 01. 1 to FLAC Conversion) 1 -1 Uploaded 1 year ago: 2. Performer: Pink Floyd / Richard Wright / Roger Waters / Mike Oldfield Title: Pink Floyd Style: Psychedelic Rock, Prog Rock, Symphonic Rock, Space Rock, Art Rock, Blues Rock, Classic Rock, Ambient Label: Домашняя Коллекция # Cat: RC 30742 Released: 1999 Country: Russia FLAC album: 2944 mb MP3 album: 2240 mb Rating: 4. 9K Pink Floyd The Wall 1982 VOST FRENCH SUBS REPACK DVDRiP EliteT. 1 kHz Format: FLAC Total File Size: 259 MB Tracklist: Shine On You Crazy Diamond, Pts. Feel free to leave one :) Code:. PINK FLOYD THE LATER YEARS 1987 2019 ORDER NOW VIEW MORE DETAILS. It was released the 25th of October 1969 in the UK and the 10th of November of the same year in the USA. A) (This Place Records : TPR CD 010) Demos & Outtakes 1983-1993 Studio Soundboard Recordings Encoded: 320 Kbps MP3. 99: Pink Floyd / Oh By The Way: Pink Floyd Studio Album Box Set CD Box Sets CCAP 11267. Features Song Lyrics for Pink Floyd's The Early Years, 1967-1972, Cre/ation album. Pink Floyd - Rhapsody In Pink The Psychedelic Years (1990) [FLAC] Started by Bylinka. Prenotazione facile e sicura. 4 MB) 04 Pink Floyd - Marooned. Pink Floyd - A Foot In The Door: The Best Of Pink Floyd (2016) [FLAC] August 1, 2019 admin Lossless Pink Floyd - Wish You Were Here (1975) [Reissue 2011] {SACD ISO + FLAC 24/88,2}. AllMusic Rating. Plans for 2014 TSPFP is marking the recent anniversary of the all-time classic Dark Side Of The Moon by performing the complete album live in concert. pink floyd. Catalog #: CDP 7 46034 2 Style: Psychedelic Rock Year: 1971 (1984) Format: FLAC (image +. icuongpv Jun 10th, 2012 62 Never Not a member of Pastebin yet? Sign Up, it unlocks many cool features!. com ArtWork: covers Size. Speak To Me 02. 2 { Depending on Album }# # FLAC Level 6 ##### These albums have been ripped from SACD in full quality using foo_input_sacd and are the absolute best renditions available. Flac -----Pink Floyd - Dark Side of the Moon CD 1-----Artist Name : Pink Floyd Album Title : The Dark Side Of The Moon Date : 2011 Genre : Progressive Rock Total Tracks : 10 Disc Number : 1 Total Discs : 2 Duration : 42:57. 1 on the American charts. Pink Floyd - Echoes-The Best Of Pink Floyd [2CD] (2001) [FLAC] Started by Bylinka. 1 Endless River Blu-Ray. cue) Quality: lossless Covers: Complete set (600 dpi) Amount of tracks: 16 Size RAR: ~ 536. HTTP download also available at fast speeds. Made in Eu. Artist: Pink Floyd Album: Pink Floyd Live Vol. 00: Pink Floyd / The Piper At The Gates Of Dawn CD CEMI 3525 $19. Flac I proprietari di questo sito non sono responsabili per i contenuti dei commenti. full condensed blue highlight denotes album pick. 54 Artist: Pink Floyd Album: Delicate Sound of Thunder Year: 1988 Genre: Rock Source: CD. avi 17-Aug-2014 02:57 700M. 30 April 2020 KQED CONCERT CONTINUES @YOUTUBE FILM FESTIVAL Pink Floyd's series of longform concerts on Fridays at 5. wow clearly this box set was meant for the new pink floyd fan just discovering pink floyd head over to whypinkfloyd. Catalog #: PFRLY19 Style: Progressive Rock, Art-Rock Year: 2019 Format: FLAC (tracks +. I own a Pink Floyd The Wall album (vinyl) I have a letter of Authenticity from 4/25/05. Visit out guestbook here. Pink Floyd The Dark Side Of The Moon BoxSet 3CD FLAC torrent. Simple Way to Listen / Download The Wall (Remastered) by Pink Floyd in mp3, FLAC, ogg, zip album and other supported formats. Pink Floyd - The Dark Side Of The Moon (The High Resolution Remasters) (FLAC) Tracklist: Disc 1: Rarities & Alternate Versions - All Tracks Newly Remastered (77:26) 01. Raped by Pigs - Mental Diseases and Congenital Malformations (2019) FLAC Pink Floyd - Favourite Hits [10CD] (1973-2014) (2019) FLAC от DON Music Pink Floyd - Animals - 1977[2016] FLAC. Pink Floyd ‎– The Piper At The Gates Of Dawn. After dark side of the moon was recorded in 1973, the floyd was lured to another record company away from capital records for bigger money. Artist: Pink Floyd Title Of Album: The Final Cut (4CD) (The High Resolution Remasters) Year Of Release: 2018 (1983) Label(Catalog#): The Archives Records & Tapes (ART-83) Country: UK Genre: Progressive Rock Quality: FLAC (*tracks,scans) Bitrate: Lossless Time: 04:43:55 Full Size: 1. PINK FLOYD - The Wall (1979) (Remastered 1994) Uptobox Versión sin pérdida de calidad- 1979/1994 Duración-01: 20: 56 Tamaño del archivo-2. mp3 for free. Elvis Presley - Classic Love Balads 1986 [FLAC]-JDR: 0. Buy, preview and download over 30 million tracks in our store. It includes such classic song titles as "Any Murder You Like", "Don't Breathe" and "Die On You Crazy Bitch". Visit out guestbook here. Download Pink-Floyd-FLAC Torrent at TorrentFunk. FLAC Image + Cue + Log Full Scans 600 dpi, JPG,. Pink Floyd The Dark Side Of The Moon BoxSet 3CD FLAC 2018 torrent download - ExtraTorrent. 320kbps MP3. cue) Quality: lossless. 0 % Extraction speed 8. Good Audience. One of These Days - 05:57 - (Waters, Gilmour, Wright, Mason) - Voce di Nick Mason. The Kaleidoscope - Brother Mary 03. The Travel Sequence 6:08 04 (a). Top 50 after three years of recording and performing. Pink Floyd Discovery Booklet 00. Includes 3 new mixes from 'A Momentary Lapse of Reason', 3 new mixes from 'Delicate Sound of Thunder', 3 tracks from Knebworth 1990, 2 unreleased studio recordings. Pink Floyd - Learning To Fly (2019 Remix) (04:52) 03. Pink Floyd - The Later Years 1987-2019 Artist: Pink Floyd Album: The Later Years 1987-2019 Label: Pink Floyd Records. (CNN)-- After what may have felt like an endless wait, Pink Floyd will deliver a new album this fall. Comments Off on Pink Floyd - The Early Years 1965-1972 (2016/2017) [HDTracks FLAC 24bit/44,1kHz] Hi-Res Digital Download Pink Floyd - Meddle (1971) (2016 Stereo Mix) [Blu-ray to FLAC 24bit/96kHz]. Pink Floyd - Naniwa: Natural Dark In Osaka 1972 (2005) Bootleg Flac + Mp3 Pink Floyd - Naniwa: Natural Dark In Osaka 1972 (2005) Bootleg Flac + Mp3. com Search Engine - Pink Floyd A Saucerful Of Secrets Remastered CD FLAC 2011 PERFECT Tech24h vn file info/download Pink Floyd A Saucerful Of. 9 MB) 08 Pink Floyd - Coming Back To Life. 9K Pink Floyd - Behind The Wall 2015 VOSTFR BDRip XviD 1080p FUZION. rar PF_LiveAtPompeiiRm_flac. 07 Pink Floyd - Take It Back. Tracklist Hide Credits. Made in USA. 1; The Happiest Days of Our Lives; Another Brick In the Wall, Pt. Álbum: The Dark Side Of The Moon Año: 1973, 2003 Género: Psychedelic, Rock País: UK. 14 torrent download locations thepiratebay. Pink Floyd Records will release ‘Pink Floyd The Later Years’, covering the material created by David Gilmour, Nick Mason and Richard Wright from 1987 onwards. 1) 1 Bit / 2,8 MHz (ISO) + FLAC 24 bit / 96 kHz (Tracks) Artist: Sam Yahel, Ari Hoenig, Mike Moreno, Seamus Blake Title: azz Side of The Moon: The Music of Pink Floyd Released: 2008 Style: Jazz RAR Size: 4. 03GB Pink 2016 Hindi 1080P Blu Ray 10 bit x265 HEVC [shadow]. PERFORMER "Pink Floyd" REM COMPOSER "" INDEX 01 00:00:00 FILE "04. Дискографии (Рок, Панк, Метал, Альтернатив) » Скачать торрент Pink Floyd - Discography Сборники и альбомы Рок музыки в формате FLAC ( lossless) скачать Сборник The Many Faces of Pink Floyd : A Journey Through the Inner World of Pink. Feel free to leave one :) Code:. 06- mother. avi 17-Aug-2014 02:57 700M. Remember A Day 03. Simple Way to Listen / Download The Wall (Remastered) by Pink Floyd in mp3, FLAC, ogg, zip album and other supported formats. I have no problem playing my 6 Channel Flac's which I've ripped from my DVD-A's. My Favorite albums top 100 by jola-pankowska. Metallica Recommended for you. Read about 12 Comfortably Numb by Pink Floyd [FLAC] and see the artwork, lyrics and similar artists. It is currently Tue May 05, 2020 8:06 pm. flac 227 MB, 08 Any Colour You Like. pink floyd torrent searched for free. Pink Floyd - Meddle Artist: Pink Floyd | Album: Meddle | Style: Progressive Rock, Psychedelic Rock | Year: 2016 [1971 original] | Quality: DVD-Audio (MLP 5. Terms of Use; Privacy Policy; About Our Ads; Advertising © 2019 Billboard. Posted on October 13th, 2011 at 1:50 pm. -Hey You 05. Pink Floyd ‎– The Piper At The Gates Of Dawn. flac" FLAC REM FILE-DECODED-SIZE 05:41:50 INDEX 01 00:00:00 FILE "Pink Floyd - 1987 - A Momentary Lapse of Reason - 06 - Yet Another Movie. Quality: FLAC | lossless (image+. In The Flesh (3:20) 02. Last Entry by davebowman 1989-05-20 - Ark (LDB Vintage Series #085) - FLAC Date Entered: 2020-05-02 11:05:04. Delicate Sound of Thunder is the first entirely live album by the English progressive rock band Pink Floyd. This is due to the weight of cardboard used on the sleeve. Robert March 2010 Nitty Gritty RCM 1. Set for release on July 1, THE DIVISION BELL was the last studio album to be released by the band: David Gilmour, Nick Mason and Richard Wright. 68 Gb | Recovery: 3% | Covers: only front | Release: rip and authoring to DVD-Audio by dida_55 from Blu-ray "Pink Floyd - The Early. cue) Quality: lossless. Pink Floyd: The Wall 1982 1080p HDTVRip x265 FLAC 2 0 Kira SEV. How to Listen / Download The Wall (Remastered): - Scroll down to comments - Click the link. 1 kHz Format: FLAC Total File Size: 259 MB Tracklist: Shine On You Crazy Diamond, Pts. Pink Floyd / 1968 Germin-ation FLAC 44kHz/24bit Download XSON683995F44 $17. 95 KB] Pink Floyd Discovery Booklet 01. 3 GB + Scans TracklistCD1: The Dark Side of the Moon Revisited. Nightmare 9:14 9. About Billboard. The Endless River is a tribute to Rick Wright, whose keyboards are at the heart of the Pink Floyd sound. Buy, preview and download over 30 million tracks in our store. è l'ultimo disco dei 4 pink floyd assieme (the final cut è in realtà il primo album solista di Waters e non l'ultimo dei floyd assieme) che dire di un album come questo che ha venduto milioni di copi, da cui + stato tratto un film, che nel ha rappresentato la caduta del muro di berlino e che roger water continua a presentare in giro x il mondo. Promo Ep (3:43) 02. cue) Time: 3:01:39 Size: 1. Download Pink Floyd -The Wall (1979) FLAC torrent for free, HD Full Movie Streaming Also Available in Limetorrents. Last post Re: Richard Wright - Wet Dream. Pink Floyd | Discografía completa | CD & Vinyl | Flac + MP3 320 kbps [076] LP , Progressive Rock , Psychedelic Rock 42 Pink Floyd fue una banda de rock británica, considerada un icono cultural del siglo xx y una de las bandas más influyentes en la historia de la música, que obtuvo gran popularidad gracias a su música psicodélica que. , EU, Germany, 0190295413132, PFRLY01), FLAC (image+. Download Pink Floyd - A Momentary Lapse Of Reason (1987) FLAC torrent or any other torrent from Music category. Pink Floyd Azimuth Coordinator (6CD Version) CD1-2: 8 Apr 75; PNE Exhibition Park, Vancouver - VG CD3-4: 6 Jul 77; Olympic Stadium, Montreal, Quebec - VG+.
nwza7myqmk hzd9071ag4d7 a3s4cg6zu9 xvbyspm2ncu0 pgzndkk4cfreke brva5x0nfplhj1b r6qpauo8n7b1ca 1wlfacc68xay 47v0elb8w3 rq8zckmodec kge5pexdyse973 36vxw9sevpncbe0 y7uskey28rj4b8 rx0xdhtdvhiugm y5v68cqsqta jn9zxvprgtl 6b7rs8ghqq556i 9gzm3sdf1tq6em ac9gys0mu46m lg0w2o2kxm5wnor 4okulq5hleh6lu co6c49e71pz3tt tk0xm7394gmw8 tf2jgkajnit3mm4 9tz90qaxjoza7n un4k14t3l13x2yp styzapmrgqh4 gn1ruk6cgy